GET IT NOW
Wild Card (2015)-Jason Statam-1080p-H264-AC 3 (DTS 5.1) Remastered nickarad
extratorrent - A Fan Made AlternativeLogin   |   Register
Important Information
Registrations are open now
-------------------------------------

Please click here to register with Extratorrent2 to recieve latest updates, add bookmarks and to post comments.

Friends
Friends

1) Filebebo
-------------------------------------
2) MoviesDig
-------------------------------------
3) Torrentz2.cc
-------------------------------------
4) Torrents.me

Extratorrent2 > Categories > Movies > Lone Survivor 2013 720p Esub BluRay Dual Audio English Hindi GOPISAHI torrent


Browse Movies torrents

Lone Survivor 2013 720p Esub BluRay Dual Audio English Hindi GOPISAHI torrent


Download torrent: Download Lone Survivor 2013 720p Esub BluRay Dual Audio English Hindi GOPISAHI torrent Magnet link Bookmark Torrent: Lone Survivor 2013 720p Esub BluRay Dual Audio English Hindi GOPISAHI   Lone Survivor 2013 720p Esub BluRay Dual Audio English Hindi GOPISAHI torrent
Info hash: 13439FE7F725862E0299ABAA5086BA93BC915501
Category: Categories > Movies
Trackers:
View all torrent trackers >
Health:
 seeds: 44 ,  leechers: 49 |  Update >
Torrent language: English English
Total Size: 934.2 MB
Files List:
1    View torrent files >
Uploader:
PENDUDESI
Torrent added: April 17, 2018, 8:30 am
Users rating: ---, not rated. please login to rate.

Download Lone Survivor 2013 720p Esub BluRay Dual Audio English Hindi GOPISAHI torrent



Torrent Description


Format : Matroska

Format version : Version 4 / Version 2

File size : 934 MiB

Duration : 1 h 56 min

Overall bit rate : 1 122 kb/s

Movie name : Lone Survivor 2013 GOPISAHI


Video

Format : AVC

Codec ID : V_MPEG4/ISO/AVC

Duration : 1 h 56 min

Bit rate : 903 kb/s

Width : 1 280 pixels

Height : 536 pixels

Display aspect ratio : 2.40:1

Frame rate mode : Constant

Frame rate : 25.000 FPS

Original frame rate : 24.000 FPS

Color space : YUV

Chroma subsampling : 4:2:0

Bit depth : 8 bits

Scan type : Progressive

Bits/(Pixel*Frame) : 0.053

Stream size : 783 MiB (84%)

Title : GOPISAHI

Writing library : x264 core 135 r2 f0c1c53


Audio #1

Format : AAC

Duration : 1 h 56 min

Bit rate : 96.0 kb/s

Channel(s) : 6 channels

Channel positions : Front: L C R, Side: L R, LFE

Sampling rate : 48.0 kHz

Frame rate : 46.875 FPS (1024 SPF)

Compression mode : Lossy

Stream size : 79.1 MiB (8%)

Title : GOPISAHI

Language : English


Audio #2

Format : AAC

Duration : 1 h 56 min

Bit rate : 83.4 kb/s

Channel(s) : 6 channels

Channel positions : Front: L C R, Side: L R, LFE

Sampling rate : 48.0 kHz

Frame rate : 46.875 FPS (1024 SPF)

Compression mode : Lossy

Delay relative to video : 657 ms

Stream size : 69.4 MiB (7%)

Title : GOPISAHI

Language : Hindi


Text


Language : English



Download Lone Survivor 2013 720p Esub BluRay Dual Audio English Hindi GOPISAHI torrent


Related Torrents


Comments   (please login to add your comment!)

the lighthouse     casey calvert     teacher and student sex     dual audio 2017     problem     xamarin c     soaking wet     jana defi     nakaimo     731     vixen gina     humiliationpov     lynda revit     spiderman 1080p     fx trading     sebastian 2017     fantastic four     hindi dual 2017 720p     i wish 2011     raven hart stepmom     champions 2008     ladyboy ladyboy     hindi 2017     fuckstudies crystal fresh     


Home - Browse Torrents

Made with love by an Extratorrent Fan!