Game Over, Man! FRENCH WEBRIP 2018
Chapitre 94
extratorrent - A Fan Made AlternativeLogin   |   Register
Important Information
Registrations are open now
-------------------------------------

Please click here to register with Extratorrent2 to recieve latest updates, add bookmarks and to post comments.

Friends
Friends

1) Filebebo
-------------------------------------
2) MoviesDig
-------------------------------------
3) Torrentz2.cc
-------------------------------------
4) Torrents.me

Extratorrent2 > Categories > Movies > 18+.Escorts.2015.480p.WEBRip. English.AAC.LLG torrent


Browse Movies torrents

18+.Escorts.2015.480p.WEBRip. English.AAC.LLG torrent


Download torrent: Download 18+.Escorts.2015.480p.WEBRip. English.AAC.LLG torrent Magnet link Bookmark Torrent: 18+.Escorts.2015.480p.WEBRip. English.AAC.LLG   18+.Escorts.2015.480p.WEBRip. English.AAC.LLG torrent
Info hash: 9AAAE4813A6B49C99BDC5DFC4AD2EC7A81CB30FB
Category: Categories > Movies
Trackers:
View all torrent trackers >
Health:
 seeds: 8 ,  leechers: 15 |  Update >
Torrent language: English English
Total Size: 349.3 MB
Files List:
2    View torrent files >
Uploader:
LifeLongg
Torrent added: April 17, 2018, 3:31 am
Tags: Documentary, 2015
Users rating: ---, not rated. please login to rate.

Download 18+.Escorts.2015.480p.WEBRip. English.AAC.LLG torrent



Torrent Description





******************************Thumbnail:**********************



******************************Screenshots:********************

Screenshot 1

Screenshot 2

Screenshot 3

Screenshot 4

Screenshot 5

Screenshot 6

Screenshot 7

Screenshot 8

Screenshot 9

Screenshot 0

**************************************************************

Complete name : 18+.Escorts.2015.480p.WEBRip.English.AAC.LLG.mp4
Format : MPEG-4
Format profile : Base Media
Codec ID : isom (isom/iso2/avc1/mp41)
File size : 342 MiB
Duration : 46 min 26 s
Overall bit rate : 1 028 kb/s
Writing application : Lavf57.56.101

Video
ID : 1
Format : AVC
Format/Info : Advanced Video Codec
Format profile :
Format settings : CABAC / 4 Ref Frames
Format settings, CABAC : Yes
Format settings, RefFrames : 4 frames
Codec ID : avc1
Codec ID/Info : Advanced Video Coding
Duration : 46 min 26 s
Bit rate : 900 kb/s
Width : 720 pixels
Height : 404 pixels
Display aspect ratio : 16:9
Frame rate mode : Constant
Frame rate : 29.970 (29970/1000) FPS
Color space : YUV
Chroma subsampling : 4:2:0
Bit depth : 8 bits
Scan type : Progressive
Bits/(Pixel*Frame) : 0.103
Stream size : 296 MiB (87%)

Audio
ID : 2
Format : AAC
Format/Info : Advanced Audio Codec
Format profile : LC
Codec ID : mp4a-40-2
Duration : 46 min 26 s
Bit rate mode : Constant
Bit rate : 129 kb/s
Channel(s) : 2 channels
Channel positions : Front: L R
Sampling rate : 48.0 kHz
Frame rate : 46.875 FPS (1024 SPF)
Compression mode : Lossy
Stream size : 42.7 MiB (13%)
Default : Yes
Alternate group : 1


Download 18+.Escorts.2015.480p.WEBRip. English.AAC.LLG torrent




Comments   (please login to add your comment!)


Home - Browse Torrents

Made with love by an Extratorrent Fan!