Total Film Presents ; Classic Film 2016
Que Choisir N°568 - Avril 2018
extratorrent - A Fan Made Alternative Login   |   Register
Important Information
Registrations are open now
-------------------------------------

Please click here to register with Extratorrent2 to recieve latest updates, add bookmarks and to post comments.

Friends
Friends

1) Filebebo
-------------------------------------
2) MoviesDig
-------------------------------------
3) Torrentz2.cc
-------------------------------------
4) Torrents.me

Extratorrent2 > Categories > Movies > Baaghi 2 (2018) [Hindi - HDRip - x264 - 700MB] - Team TR torrent


Browse Movies torrents

Baaghi 2 (2018) [Hindi - HDRip - x264 - 700MB] - Team TR torrent


Download torrent: Download Baaghi 2 (2018) [Hindi - HDRip - x264 - 700MB] - Team TR torrent Magnet link Bookmark Torrent: Baaghi 2 (2018) [Hindi - HDRip - x264 - 700MB] - Team TR   Baaghi 2 (2018) [Hindi - HDRip - x264 - 700MB] - Team TR torrent
Info hash: D3B6E2B90DADF9802D2AC6428215C8CE274BC88A
Category: Categories > Movies
Trackers:
View all torrent trackers >
Health:
 seeds: 476 ,  leechers: 1271 |  Update >
Torrent language: Hindi Hindi
Total Size: 698.6 MB
Files List:
1    View torrent files >
Uploader:
RockerS
Torrent added: April 17, 2018, 3:31 am
Tags: Drama, , Action, , Romance, , Thriller
Users rating: ---, not rated. please login to rate.

Download Baaghi 2 (2018) [Hindi - HDRip - x264 - 700MB] - Team TR torrent



Torrent Description

Baaghi 2 (2018) [Hindi - HDRip - x264 - 700MB] - Team TR


SAMPLE

SCREENSHOTS

Team TamilRockers Exclusive

Source : DesireMovies (Thanks a lot)

MEDIA INFO
General
Format                         : Matroska
Format version                 : Version 4 / Version 2
File size                      : 704 MiB
Duration                       : 2 h 27 min
Overall bit rate               : 666 kb/s

Video
ID                             : 1
Format                         : AVC
Format/Info                    : Advanced Video Codec
Duration                       : 2 h 27 min
Bit rate                       : 618 kb/s
Width                          : 720 pixels
Height                         : 320 pixels
Display aspect ratio           : 2.25:1
Frame rate mode                : Constant
Frame rate                     : 25.000 FPS
Stream size                    : 651 MiB (93%)
Language                       : Hindi
Default                        : Yes
Forced                         : No


Audio
ID                             : 2
Format                         : MPEG Audio
Format version                 : Version 1
Format profile                 : Layer 3
Format settings                : Joint stereo / MS Stereo
Codec ID                       : A_MPEG/L3
Codec ID/Hint                  : MP3
Duration                       : 2 h 27 min
Bit rate mode                  : Constant
Bit rate                       : 48.0 kb/s
Channel(s)                     : 2 channels
Sampling rate                  : 48.0 kHz
Frame rate                     : 41.667 FPS (1152 SPF)
Compression mode               : Lossy
Delay relative to video        : -23 ms
Stream size                    : 50.7 MiB (7%)
Language                       : Hindi
Default                        : Yes
Forced                         : No



Download Baaghi 2 (2018) [Hindi - HDRip - x264 - 700MB] - Team TR torrent


Related Torrents


Comments   (please login to add your comment!)

vanessa blake     naughtyamerica housewife     mkvcage 1980     hnd 408     milfs     kino     hum dil de chuke sanam 1999     shiva hindi     tight and wet     stardust     maddie winters     miki     e commerce business     ann calis     swallowed     18 amateur     phoneshop s03e03     porno 2018     telugu     sargam 1979     noelle easton 2017     ghost wars s01e07     elle rose anal     a lunar creampie     


Home - Browse Torrents

Made with love by an Extratorrent Fan!